Скачать торрент музыку, аудиокниги, фильмы, сериалы бесплатно

Ответ
 
Опции темы Опции просмотра
  #1  
Старый 11.11.2008, 12:56
BasterBot BasterBot вне форума
Senior Member
 
Регистрация: 23.04.2008
Сообщений: 21,942
(Валаамские песнопения) Торжество Православия - Хор братии Валаамского монастыря - 2002, APE (image .cue), lossless
Торжество Православия - Хор братии Валаамского монастыря
Жанр: Валаамские песнопения
Год выпуска диска: 2002
Производитель диска: Русь
Аудио кодек: APE
Тип рипа: image .cue
Битрейт аудио: lossless
Продолжительность: 63'46"
Трэклист:
Приидите, поклонимся...
Псалом 103 'Благослови, душе моя, Господа'
Господи воззвах, глас 1
'Ныне благочестия светлость...', глас 1
'К Первообразу носится'
Слава... и ныне... 'Безначальным и Божественным естеством'
Свете тихий (Валаамский обиход)
'Господь воцарися...', глас 6
Стихира прпп. Сергию и Герману, Валаамским чудотворцам, глас 8
Богородице Дево, радуйся
Бог Господь и явися нам...
'Пречистому Образу Твоему...' Тропарь в Неделю Православия, глас 2
О Тебе радуется... Седален по 2-ой кафизме, глас 8
'На небо очи...' Воскресные антифоны утрени, глас 2
'Воскресение Христово видевше' (осмогласник)
Псалом 50 'Помилуй мя, Боже...'
'Покаяния отверзи ми двери...' Тропари по 50 пс., глас 8
Светилен воскресный (первый), подобен: 'Жены услышите...'
'Моисей во время воздержания...' Стихира на Хвалитех, глас 6
Великое славословие (Валаамский обиход)
Тропарь воскресный 'Днесь спасение миру бысть...'
Взбранной Воеводе...Exact Audio Copy V0.99 prebeta 4 from 23. January 2008
Отчёт EAC об извлечении, выполненном 5. сентября 2008, 12:27
Хор братии Валаамского монастыря / Торжество Православия
Дисковод: Optiarc DVD RW AD-7173A Adapter: 3 ID: 0
Режим чтения : Достоверность
Использование точного потока : Да
Отключение кэша аудио : Да
Использование указателей C2 : Нет
Коррекция смещения при чтении : 48
Способность читать области Lead-in и Lead-out : Нет
Заполнение пропущенных сэмплов тишиной : Да
Удаление блоков с тишиной в начале и конце : Нет
При вычислениях CRC использовались нулевые сэмплы : Да
Интерфейс : Встроенный Win32-интерфейс для Win NT/2000
Выходной формат : Monkey's Audio Lossless Encoder v3.99 DLL
Формат сэмплов : High Lossless Compression
TOC извлечённого CD
Трек | Старт | Длительность | Начальный сектор | Конечный сектор
---------------------------------------------------------------------
1 | 0:00.00 | 1:59.42 | 0 | 8966
2 | 1:59.42 | 8:40.58 | 8967 | 48024
3 | 10:40.25 | 1:05.53 | 48025 | 52952
4 | 11:46.03 | 2:03.18 | 52953 | 62195
5 | 13:49.21 | 1:40.19 | 62196 | 69714
6 | 15:29.40 | 2:01.42 | 69715 | 78831
7 | 17:31.07 | 2:37.70 | 78832 | 90676
8 | 20:09.02 | 0:58.51 | 90677 | 95077
9 | 21:07.53 | 2:53.54 | 95078 | 108106
10 | 24:01.32 | 2:03.08 | 108107 | 117339
11 | 26:04.40 | 0:39.57 | 117340 | 120321
12 | 26:44.22 | 3:39.73 | 120322 | 136819
13 | 30:24.20 | 2:59.68 | 136820 | 150312
14 | 33:24.13 | 2:37.12 | 150313 | 162099
15 | 36:01.25 | 5:02.00 | 162100 | 184749
16 | 41:03.25 | 3:27.34 | 184750 | 200308
17 | 44:30.59 | 7:23.04 | 200309 | 233537
18 | 51:53.63 | 1:52.23 | 233538 | 241960
19 | 53:46.11 | 2:18.14 | 241961 | 252324
20 | 56:04.25 | 3:25.26 | 252325 | 267725
21 | 59:29.51 | 0:47.19 | 267726 | 271269
22 | 60:16.70 | 3:30.63 | 271270 | 287082
Характеристики диапазона извлечения и сообщения об ошибках
Выбранный диапазон
Имя файла E:\Valaam2002TriumphOfOrthodoxy\Хор братии Валаамского монастыря - Торжество Православия.ape
Пиковый уровень 100.0 %
Качество диапазона 99.9 %
CRC копии 424CE369
Копирование... OK
Ошибок не произошло
AccurateRip: сводка
Трек 1 нет в базе данных
Трек 2 нет в базе данных
Трек 3 нет в базе данных
Трек 4 нет в базе данных
Трек 5 нет в базе данных
Трек 6 нет в базе данных
Трек 7 нет в базе данных
Трек 8 нет в базе данных
Трек 9 нет в базе данных
Трек 10 нет в базе данных
Трек 11 нет в базе данных
Трек 12 нет в базе данных
Трек 13 нет в базе данных
Трек 14 нет в базе данных
Трек 15 нет в базе данных
Трек 16 нет в базе данных
Трек 17 нет в базе данных
Трек 18 нет в базе данных
Трек 19 нет в базе данных
Трек 20 нет в базе данных
Трек 21 нет в базе данных
Трек 22 нет в базе данных
Ни одного трека нет в базе AccurateRip
Конец отчёта
Вложения:
Тип файла: torrent torrents-ua.com_1092553_932402.torrent 15.4 Кб , (3)
Ответить с цитированием
Ответ


Опции темы
Опции просмотра

Ваши права в разделе
Вы не можете создавать темы
Вы не можете отвечать на сообщения
Вы не можете прикреплять файлы
Вы не можете редактировать сообщения

BB коды Вкл.
Смайлы Вкл.
[IMG] код Вкл.
HTML код Выкл.

Профессиональная разработка сайтов - Webstudio-pro.net