Скачать торрент музыку, аудиокниги, фильмы, сериалы бесплатно

Ответ
 
Опции темы Опции просмотра
  #1  
Старый 11.11.2008, 12:34
BasterBot BasterBot вне форума
Senior Member
 
Регистрация: 23.04.2008
Сообщений: 21,943
(minimal techno, ambient) Pantha Du Prince - This Bliss - 2007, FLAC (tracks .cue), lossless
Pantha Du Prince - This Bliss
Жанр: minimal techno, ambient
Год выпуска диска: 2007
Производитель диска: Germany
Аудио кодек: FLAC
Тип рипа: tracks .cue
Битрейт аудио: lossless
Трэклист:
1 Asha (6:31)
2 Saturn Strobe (7:27)
3 Walden 2 (10:32)
4 Moonstruck (5:36)
5 Eisbaden (7:04)
6 Urlichten (12:09)
7 White Out (6:18)
8 Florac (6:04)
9 Steiner Im Flug (6:30)
10 Seeds Of Sleep (6:03)
Доп. информация:EAC extraction logfile from 23. August 2007, 18:03 for CD
Pantha du Prince / This Bliss
Used drive : MATSHITADVD-RAM UJ-840S Adapter: 1 ID: 0
Read mode : Secure with NO C2, accurate stream, disable cache
Read offset correction : 102
Overread into Lead-In and Lead-Out : No
Used output format : C:\Program Files\Exact Audio Copy\flac.exe (User Defined Encoder)
128 kBit/s
Additional command line options : -6 -V -T "artist=%a" -T "title=%t" -T "album=%g" -T "date=%y" -T "tracknumber=%n" -T "genre=%m" -T comment="%e" -T "comment=EAC (Secure Mode)" %s
Other options :
Fill up missing offset samples with silence : Yes
Delete leading and trailing silent blocks : No
Installed external ASPI interface
Track 1
Filename C:\Users\James\Desktop\Downloads\Pantha du Prince - This Bliss (Flac)\01 - Pantha du Prince - Asha.wav
Pre-gap length 0:00:02.00
Peak level 99.5 %
Track quality 100.0 %
Test CRC 65390DF5
Copy CRC 65390DF5
Copy OK
Track 2
Filename C:\Users\James\Desktop\Downloads\Pantha du Prince - This Bliss (Flac)\02 - Pantha du Prince - Saturn Strobe.wav
Peak level 99.6 %
Track quality 100.0 %
Test CRC AE9D530A
Copy CRC AE9D530A
Copy OK
Track 3
Filename C:\Users\James\Desktop\Downloads\Pantha du Prince - This Bliss (Flac)\03 - Pantha du Prince - Walden 2.wav
Peak level 99.8 %
Track quality 100.0 %
Test CRC 3CE10210
Copy CRC 3CE10210
Copy OK
Track 4
Filename C:\Users\James\Desktop\Downloads\Pantha du Prince - This Bliss (Flac)\04 - Pantha du Prince - Moonstruck.wav
Peak level 99.6 %
Track quality 100.0 %
Test CRC 04683E82
Copy CRC 04683E82
Copy OK
Track 5
Filename C:\Users\James\Desktop\Downloads\Pantha du Prince - This Bliss (Flac)\05 - Pantha du Prince - Eisbaden.wav
Peak level 99.7 %
Track quality 100.0 %
Test CRC AF196953
Copy CRC AF196953
Copy OK
Track 6
Filename C:\Users\James\Desktop\Downloads\Pantha du Prince - This Bliss (Flac)\06 - Pantha du Prince - Urlichten.wav
Peak level 99.5 %
Track quality 100.0 %
Test CRC 56411143
Copy CRC 56411143
Copy OK
Track 7
Filename C:\Users\James\Desktop\Downloads\Pantha du Prince - This Bliss (Flac)\07 - Pantha du Prince - White Out.wav
Peak level 100.0 %
Track quality 100.0 %
Test CRC D617153F
Copy CRC D617153F
Copy OK
Track 8
Filename C:\Users\James\Desktop\Downloads\Pantha du Prince - This Bliss (Flac)\08 - Pantha du Prince - Florac.wav
Peak level 100.0 %
Track quality 99.9 %
Test CRC 54382C60
Copy CRC 54382C60
Copy OK
Track 9
Filename C:\Users\James\Desktop\Downloads\Pantha du Prince - This Bliss (Flac)\09 - Pantha du Prince - Steiner Im Flug.wav
Peak level 99.9 %
Track quality 100.0 %
Test CRC 9B6196B5
Copy CRC 9B6196B5
Copy OK
Track 10
Filename C:\Users\James\Desktop\Downloads\Pantha du Prince - This Bliss (Flac)\10 - Pantha du Prince - Seeds of Sleep.wav
Peak level 99.1 %
Track quality 99.9 %
Test CRC 83E7B27D
Copy CRC 83E7B27D
Copy OK
No errors occured
End of status report

Источник: [ Ссылки видят только зарегистрированные пользователи ]
Вложения:
Тип файла: torrent torrents-ua.com_1062105_906064.torrent 20.1 Кб , (1)
Ответить с цитированием
Ответ


Опции темы
Опции просмотра

Ваши права в разделе
Вы не можете создавать темы
Вы не можете отвечать на сообщения
Вы не можете прикреплять файлы
Вы не можете редактировать сообщения

BB коды Вкл.
Смайлы Вкл.
[IMG] код Вкл.
HTML код Выкл.

Профессиональная разработка сайтов - Webstudio-pro.net