Скачать торрент музыку, аудиокниги, фильмы, сериалы бесплатно

Ответ
 
Опции темы Опции просмотра
  #1  
Старый 10.11.2008, 17:42
BasterBot BasterBot вне форума
Senior Member
 
Регистрация: 23.04.2008
Сообщений: 21,943
(Electronic) Moby - Last Night - 2008, FLAC (image .cue), lossless
Moby - Last Night
Страна: USA
Жанр: Electronic
Год выпуска: 2008
Формат: FLAC (image .cue)
Битрейт аудио: lossless
Продолжительность: 01:02:52
Трэклист:
1. "Ooh Yeah" - 5:18
2. "I Love to Move in Here" - 4:45
3. "257.zero" - 3:38
4. "Everyday It's 1989" - 3:40
5. "Live for Tomorrow" - 4:02
6. "Alice" - 4:27
7. "Hyenas" - 3:35
8. "I'm in Love" - 3:43
9. "Disco Lies" - 3:23
10. "The Stars" - 4:21
11. "Degenerates" - 3:58
12. "Sweet Apocalypse" - 5:19
13. "Mothers of the Night" - 3:19
14. "Last Night" - 4:53Exact Audio Copy V0.99 prebeta 3 from 28. July 2007
EAC uitlezen log bestand van 31. Maart 2008, 11:15
Moby / Last Night
gebruikt loopwerk : HL-DT-STDVD-RW GSA-H60L Adapter: 1 ID: 1
Lees mode : Veilig
Gebruik accurate stream : Ja
Audio buffer uitgeschakeld : Ja
Gebruik C2 Foutinformatie : Neen
Lees-offset correctie : 667
Overlees in Lead-In en Lead-Out : Neen
Vul ontbrekende offset samples met stiltes aan : Ja
Wis stilte blokken aan het begin en einde : Neen
Nul samples gebruikt in CRC berekeningen : Ja
Gebruik interface : Native Win32 interface voor Win NT/2000/XP
Gebruik uitgave formaat : Interne WAV Routines
Sample formaat : 44.100 Hz; 16 Bit; Stereo
TOC van de uitgelezen CD
Track | Start | Lengte | Startsector | Eindsector
--------------------------------------------------------
1 | 0:00.00 | 5:18.59 | 0 | 23908
2 | 5:18.59 | 4:44.41 | 23909 | 45249
3 | 10:03.25 | 3:37.37 | 45250 | 61561
4 | 13:40.62 | 3:40.24 | 61562 | 78085
5 | 17:21.11 | 4:02.37 | 78086 | 96272
6 | 21:23.48 | 4:26.65 | 96273 | 116287
7 | 25:50.38 | 3:35.08 | 116288 | 132420
8 | 29:25.46 | 3:42.36 | 132421 | 149106
9 | 33:08.07 | 3:22.66 | 149107 | 164322
10 | 36:30.73 | 4:21.03 | 164323 | 183900
11 | 40:52.01 | 3:58.25 | 183901 | 201775
12 | 44:50.26 | 5:18.64 | 201776 | 225689
13 | 50:09.15 | 3:19.40 | 225690 | 240654
14 | 53:28.55 | 9:23.60 | 240655 | 282939
Bereikstatus en fouten
Geselecteerd bereik
Bestandsnaam K:\POST\Moby - Last Night (EAC Image)\Moby - Last Night.wav
Piek niveau 97.7 %
Bereikskwaliteit 100.0 %
Kopie CRC A0097003
Kopie OK
Geen fouten opgetreden
Einde van het status rapport
Вложения:
Тип файла: torrent torrents-ua.com_758598_637323.torrent 16.9 Кб , (1)

Последний раз редактировалось BasterBot, 10.11.2008 в 17:46.
Ответить с цитированием
Ответ


Опции темы
Опции просмотра

Ваши права в разделе
Вы не можете создавать темы
Вы не можете отвечать на сообщения
Вы не можете прикреплять файлы
Вы не можете редактировать сообщения

BB коды Вкл.
Смайлы Вкл.
[IMG] код Вкл.
HTML код Выкл.

Профессиональная разработка сайтов - Webstudio-pro.net