Скачать торрент музыку, аудиокниги, фильмы, сериалы бесплатно

Ответ
 
Опции темы Опции просмотра
  #1  
Старый 24.01.2009, 13:24
BasterBot BasterBot вне форума
Senior Member
 
Регистрация: 23.04.2008
Сообщений: 21,943
(Post Rock) Yndi Halda - Enjoy Eternal Bliss - 2006, FLAC (tracks), lossless
Yndi Halda - Enjoy Eternal Bliss
Страна: UK
Жанр: Post Rock
Год выпуска: 2006
Формат: FLAC (tracks)
Битрейт аудио: lossless
Продолжительность: 01:05:42
Трэклист:
01. Dash and Blast (16:51)
02. We Flood Empty (11:41)
03. A Song For Starlit Beaches (19:39)
04. Illuminate My Heart, My Darling! (17:31)
Доп. информация: [ Ссылки видят только зарегистрированные пользователи ]
Группа играет весьма нестандартный построк: по сравнению с большинством команд этого направления, мелодии Yndi Halda очень светлы и оптимистичны. За время своего существования, а им уже 6 лет, они записали только этот альбом.
Еще интересный факт: Yndi Halda на одном из германских языков населения Скандинавии эпохи викингов значит то же, что и название альбома: Enjoy Eternal Bliss ("получай бесконечное удовольствие").
thx 2 david101
Состав:
James Vella - гитары, глокеншпиль, lapsteel-гитара, банджо, пианино, синтезатор, вокал
Jack Lambert - гитары
Daniel Neal - скрипка
Brendan Grieve - бас
Oliver Newton - барабаны и перкуссия
Источник: stmusic.orgEAC extraction logfile from 14. December 2006, 17:25 for CD
Yndi Halda / Enjoy Eternal Bliss
Used drive : PLEXTOR CD-R PX-W4824A Adapter: 0 ID: 2
Read mode : Secure with NO C2, accurate stream, disable cache
Read offset correction : 98
Overread into Lead-In and Lead-Out : No
Used output format : C:\Program Files\FLAC\flac.exe (User Defined Encoder)
128 kBit/s
Additional command line options : -V -8 -T "artist=%a" -T "title=%t" -T "album=%g" -T "date=%y" -T "tracknumber=%n" -T "genre=%m" %s
Other options :
Fill up missing offset samples with silence : Yes
Delete leading and trailing silent blocks : No
Installed external ASPI interface
Track 1
Filename I:\Music-Lossless\Yndi Halda\Yndi Halda - Enjoy Eternal Bliss (2006) [FLAC]\01 - Dash and Blast.wav
Pre-gap length 0:00:02.00
Peak level 98.0 %
Track quality 100.0 %
Test CRC 13B15350
Copy CRC 13B15350
Copy OK
Track 2
Filename I:\Music-Lossless\Yndi Halda\Yndi Halda - Enjoy Eternal Bliss (2006) [FLAC]\02 - We Flood Empty.wav
Pre-gap length 0:00:03.21
Peak level 98.0 %
Track quality 100.0 %
Test CRC 84006B3C
Copy CRC 84006B3C
Copy OK
Track 3
Filename I:\Music-Lossless\Yndi Halda\Yndi Halda - Enjoy Eternal Bliss (2006) [FLAC]\03 - A Song For Starlit Beaches.wav
Peak level 98.8 %
Track quality 100.0 %
Test CRC 06C1558A
Copy CRC 06C1558A
Copy OK
Track 4
Filename I:\Music-Lossless\Yndi Halda\Yndi Halda - Enjoy Eternal Bliss (2006) [FLAC]\04 - Illuminate My Heart, My Darling!.wav
Peak level 98.0 %
Track quality 99.9 %
Test CRC 6684B68A
Copy CRC 6684B68A
Copy OK
No errors occured
End of status report



1.
2.
3.
4.


Вложения:
Тип файла: torrent torrents-ua.com_23897.torrent 16.5 Кб , (1)

Последний раз редактировалось BasterBot, 24.01.2009 в 13:27.
Ответить с цитированием
Ответ


Опции темы
Опции просмотра

Ваши права в разделе
Вы не можете создавать темы
Вы не можете отвечать на сообщения
Вы не можете прикреплять файлы
Вы не можете редактировать сообщения

BB коды Вкл.
Смайлы Вкл.
[IMG] код Вкл.
HTML код Выкл.

Профессиональная разработка сайтов - Webstudio-pro.net