Скачать торрент музыку, аудиокниги, фильмы, сериалы бесплатно

Ответ
 
Опции темы Опции просмотра
  #1  
Старый 24.01.2009, 06:50
BasterBot BasterBot вне форума
Senior Member
 
Регистрация: 23.04.2008
Сообщений: 21,943
(Pop Rock) Phil Collins - Love Songs (A Compilation... Old and New) 2CD - 2004, APE (image .cue), lossless
Phil Collins - Love Songs (A Compilation... Old and New) 2CD
Страна: Великобритания
Жанр: Pop Rock
Год выпуска: 2004
Формат: APE (image .cue)
Битрейт аудио: lossless
Продолжительность: 53:35 60:00
Трэклист:
Disc One
1. Phil Collins - Tearing and Breaking (5:32)
2. Phil Collins - Do You Remember (4:37)
3. Phil Collins - One More Night (4:52)
4. Phil Collins - Against All Odds (3:25)
5. Phil Collins - Can't Turn Back the Years (4:38)
6. Phil Collins - Groovy Kind of Love (3:30)
7. Phil Collins - Everyday (5:42)
8. Phil Collins - Don't Let Him Steal Your Heart Away (4:46)
9. Phil Collins - Please Come Out Tonight (5:48)
10. Phil Collins - This Must Be Love (3:34)
11. Phil Collins - It's in Your Eyes (2:53)
12. Phil Collins - Can't Stop Loving You (4:18)
Disc Two
1. Phil Collins - Testify (6:32)
2. Phil Collins - True Colours (5:32)
3. Phil Collins - You'll Be In My Heart (4:18)
4. Phil Collins - If Leaving Me Is Easy (4:54)
5. Phil Collins - I've Been Trying (5:00)
6. Phil Collins - I've Forgotten Everything (4:36)
7. Phil Collins - Somewhere (4:01)
8. Phil Collins - Least You Can (5:07)
9. Phil Collins - Two Hearts (3:24)
10. Phil Collins - Separate Lives (Live) (5:15)
11. Phil Collins - My Girl (Live) (3:43)
12. Phil Collins - Always (Live) (4:31)
13. Phil Collins - The Way You Look Tonight (Live) (4:00)
Доп. информация: Сборник баллад Фила Коллинза, включающий помимо известных хитов, несколько концертных и специально записанных для данного сборника песен. Сам Коллинз в анотации к альбому написал, что собрал те песни, которые он действительно любит.
Рекомендуется всем, кто неравнодушен к красивой спокойной музыке.Exact Audio Copy V0.99 prebeta 3 from 28. July 2007
Отчёт EAC об извлечении, выполненном 12. октября 2007, 3:05
Phil Collins / Love Songs: A Compilation... Old and New - CD1
Дисковод: _NEC DVD_RW ND-3540A Adapter: 1 ID: 1
Режим чтения : Достоверность
Использование точного потока : Да
Отключение кэша аудио : Да
Использование указателей C2 : Нет
Коррекция смещения при чтении : 48
Способность читать области Lead-in и Lead-out : Нет
Заполнение пропущенных сэмплов тишиной : Да
Удаление блоков с тишиной в начале и конце : Нет
При вычислениях CRC использовались нулевые сэмплы : Да
Интерфейс : Встроенный Win32-интерфейс для Win NT/2000
Выходной формат : Внутренние WAV-операции
Формат сэмплов : 44.100 Гц; 16 бит; стерео
TOC извлечённого CD
Трек | Старт | Длительность | Начальный сектор | Конечный сектор
---------------------------------------------------------------------
1 | 0:00.00 | 5:32.32 | 0 | 24931
2 | 5:32.32 | 4:37.38 | 24932 | 45744
3 | 10:09.70 | 4:52.09 | 45745 | 67653
4 | 15:02.04 | 3:25.08 | 67654 | 83036
5 | 18:27.12 | 4:38.40 | 83037 | 103926
6 | 23:05.52 | 3:30.55 | 103927 | 119731
7 | 26:36.32 | 5:42.08 | 119732 | 145389
8 | 32:18.40 | 4:46.50 | 145390 | 166889
9 | 37:05.15 | 5:48.33 | 166890 | 193022
10 | 42:53.48 | 3:34.61 | 193023 | 209133
11 | 46:28.34 | 2:53.34 | 209134 | 222142
12 | 49:21.68 | 4:18.16 | 222143 | 241508
Характеристики диапазона извлечения и сообщения об ошибках
Выбранный диапазон
Имя файла D:\Downloads\Collins[torrents.ru]\Phil Collins - Love Songs A Compilation... Old and New - CD1.wav
Пиковый уровень 100.0 %
Качество диапазона 99.8 %
CRC копии F108F883
Копирование... OK
Ошибок не произошло
Конец отчёта
Exact Audio Copy V0.99 prebeta 3 from 28. July 2007
Отчёт EAC об извлечении, выполненном 12. октября 2007, 3:40
Phil Collins / Love Songs - A Compilation... Old
Вложения:
Тип файла: torrent torrents-ua.com_23492.torrent 14.6 Кб , (1)

Последний раз редактировалось BasterBot, 24.01.2009 в 06:54.
Ответить с цитированием
Ответ


Опции темы
Опции просмотра

Ваши права в разделе
Вы не можете создавать темы
Вы не можете отвечать на сообщения
Вы не можете прикреплять файлы
Вы не можете редактировать сообщения

BB коды Вкл.
Смайлы Вкл.
[IMG] код Вкл.
HTML код Выкл.

Профессиональная разработка сайтов - Webstudio-pro.net