Скачать торрент музыку, аудиокниги, фильмы, сериалы бесплатно

Ответ
 
Опции темы Опции просмотра
  #1  
Старый 24.01.2009, 09:59
BasterBot BasterBot вне форума
Senior Member
 
Регистрация: 23.04.2008
Сообщений: 21,943
(Шансон) Ирина Круг - Тебе моя последняя любовь - 2006, APE (image .cue), lossless
Ирина Круг - Тебе моя последняя любовь
Страна: Россия
Жанр: Шансон
Год выпуска: 2006
Формат: APE (image .cue)
Битрейт аудио: lossless
Продолжительность: 56:23
Трэклист:
01 М.Круг и И.Круг - Встретились глаза
02 М.Круг и И.Круг -Тебе последняя любовь
03 И.Круг - Поле зелёное
04 И.Круг - Боль о тебе
05 М.Круг и И.Круг - Моя королева
06 И.Круг - Пусть сейчас я плачу
07 И.Круг - Жиган-лимон
08 М.Круг и И.Круг - Приходите в мой дом
09 М.Круг - Студентка
10 М.Круг - Мой друг Хайм
11 М.Круг и И.Круг - Ну, прощай…
12 М.Круг и И.Круг - Сколько лет (Цыганская)
13 М.Круг и И.Круг - Не бросай мою любовь
14 М.Круг и И.Круг - Возвращайся
15 М.Круг - Чиколда
16 М.Круг - Тверь
Доп. информация:Exact Audio Copy V0.99 prebeta 3 from 28. July 2007
Отчёт EAC об извлечении, выполненном 6. ноября 2007, 19:28
И. КРУГ / ТЕБЕ, МОЯ ПОСЛЕДНЯЯ ЛЮБОВЬ
Дисковод: Optiarc DVD RW AD-7173S Adapter: 6 ID: 0
Режим чтения : Достоверность
Использование точного потока : Да
Отключение кэша аудио : Да
Использование указателей C2 : Нет
Коррекция смещения при чтении : 48
Способность читать области Lead-in и Lead-out : Нет
Заполнение пропущенных сэмплов тишиной : Да
Удаление блоков с тишиной в начале и конце : Нет
При вычислениях CRC использовались нулевые сэмплы : Да
Интерфейс : Встроенный Win32-интерфейс для Win NT/2000
Выходной формат : Monkey's Audio Lossless Encoder v3.99 DLL
Формат сэмплов : Normal Lossless Compression
TOC извлечённого CD
Трек | Старт | Длительность | Начальный сектор | Конечный сектор
---------------------------------------------------------------------
1 | 0:00.00 | 2:28.57 | 0 | 11156
2 | 2:28.57 | 3:03.25 | 11157 | 24906
3 | 5:32.07 | 3:26.18 | 24907 | 40374
4 | 8:58.25 | 3:58.60 | 40375 | 58284
5 | 12:57.10 | 3:50.60 | 58285 | 75594
6 | 16:47.70 | 3:40.41 | 75595 | 92135
7 | 20:28.36 | 2:40.56 | 92136 | 104191
8 | 23:09.17 | 3:44.57 | 104192 | 121048
9 | 26:53.74 | 3:56.52 | 121049 | 138800
10 | 30:50.51 | 4:17.36 | 138801 | 158111
11 | 35:08.12 | 3:05.73 | 158112 | 172059
12 | 38:14.10 | 3:43.45 | 172060 | 188829
13 | 41:57.55 | 4:55.25 | 188830 | 210979
14 | 46:53.05 | 3:03.42 | 210980 | 224746
15 | 49:56.47 | 2:54.47 | 224747 | 237843
16 | 52:51.19 | 3:27.13 | 237844 | 253381
Характеристики диапазона извлечения и сообщения об ошибках
Выбранный диапазон
Имя файла C:\Documents and Settings\Макс\Рабочий стол\И. КРУГ - ТЕБЕ, МОЯ ПОСЛЕДНЯЯ ЛЮБОВЬ.ape
Пиковый уровень 96.6 %
Качество диапазона 99.9 %
CRC копии BCDC66C7
Копирование... OK
Ошибок не произошло
Конец отчёта

REM GENRE Chanson
REM DATE 2006
REM DISCID CF0D3210
REM COMMENT "ExactAudioCopy v0.99pb3"
PERFORMER "И. КРУГ"
TITLE "ТЕБЕ, МОЯ ПОСЛЕДНЯЯ ЛЮБОВЬ"
FILE "И. КРУГ - ТЕБЕ, МОЯ ПОСЛЕДНЯЯ ЛЮБОВЬ.ape" WAVE
TRACK 01 AUDIO
TITLE "ВСТРЕТИЛИСЬ ГЛАЗА (М. КРУГ И И. КРУГ)"
PERFORMER "И. КРУГ"
INDEX 01 00:00:00
TRACK 02 AUDIO
TITLE "ТЕБЕ, МОЯ ПОСЛЕДНЯЯ ЛЮБОВЬ (М. КРУГ И И. КРУГ)"
PERFORMER "И. КРУГ"
INDEX 00 02:27:00
INDEX 01 02:28:57
TRACK 03 AUDIO
TITLE "ПОЛЕ ЗЕЛЕНОЕ"
PERFORMER "И. КРУГ"
INDEX 00 05:30:25
INDEX 01 05:32:07
TRACK 04 AUDIO
TITLE "БОЛЬ О ТЕБЕ"
PERFORMER "И. КРУГ"
INDEX 00 08:56:43
INDEX 01 08:58:25
TRACK 05 AUDIO
TITLE "МОЯ КОРОЛЕВА (М. КРУГ И И. КРУГ)"
PERFORMER "И. КРУГ"
INDEX 00 12:55:28
INDEX 01 12:57:10
TRACK 06 AUDIO
TITLE "ПУСТЬ СЕЙЧАС Я ПЛАЧУ"
PERFORMER "И. КРУГ"
INDEX 00 16:46:13
INDEX 01 16:47:70
TRACK 07 AUDIO
TITLE "ЖИГАН-ЛИМОН"
PERFORMER "И. КРУГ"
INDEX 00 20:26:54
INDEX 01 20:28:36
TRACK 08 AUDIO
TITLE "ПРИХОДИТЕ В МОЙ ДОМ (М. КРУГ И И. КРУГ)"
PERFORMER "И. КРУГ"
INDEX 00 23:07:35
INDEX 01 23:09:17
TRACK 09 AUDIO
TITLE "СТУДЕНТКА"
PERFORMER "И. КРУГ"
INDEX 00 26:52:17
INDEX 01 26:53:74
TRACK 10 AUDIO
TITLE "МОЙ ДРУГ ХАЙМ"
PERFORMER "И. КРУГ"
INDEX 00 30:48:69
INDEX 01 30:50:51
TRACK 11 AUDIO
TITLE "НУ, ПРОЩАЙ (М. КРУГ И И. КРУГ)"
PERFORMER "И. КРУГ"
INDEX 00 35:06:30
INDEX 01 35:08:12
TRACK 12 AUDIO
TITLE "СКОЛЬКО ЛЕТ (М. КРУГ И И. КРУГ)"
PERFORMER "И. КРУГ"
INDEX 00 38:12:28
INDEX 01 38:14:10
TRACK 13 AUDIO
TITLE "НЕ БРОСАЙ МОЮ ЛЮБОВЬ (М. КРУГ И И. КРУГ)"
PERFORMER "И. КРУГ"
INDEX 00 41:55:73
INDEX 01 41:57:55
TRACK 14 AUDIO
TITLE "ВОЗВРАЩАЙСЯ (М. КРУГ И И. КРУГ)"
PERFORMER "И. КРУГ"
INDEX 00 46:51:23
INDEX 01 46:53:05
TRACK 15 AUDIO
TITLE "ЧИКОЛДА (М. КРУГ)"
PERFORMER "И. КРУГ"
INDEX 00 49:54:65
INDEX 01 49:56:47
TRACK 16 AUDIO
TITLE "ТВЕРЬ (М. КРУГ)"
PERFORMER "И. КРУГ"
INDEX 00 52:49:37
INDEX 01 52:51:19
Вложения:
Тип файла: torrent torrents-ua.com_23696.torrent 15.6 Кб , (3)

Последний раз редактировалось BasterBot, 24.01.2009 в 10:02.
Ответить с цитированием
Ответ


Опции темы
Опции просмотра

Ваши права в разделе
Вы не можете создавать темы
Вы не можете отвечать на сообщения
Вы не можете прикреплять файлы
Вы не можете редактировать сообщения

BB коды Вкл.
Смайлы Вкл.
[IMG] код Вкл.
HTML код Выкл.

Профессиональная разработка сайтов - Webstudio-pro.net