Скачать торрент музыку, аудиокниги, фильмы, сериалы бесплатно

Ответ
 
Опции темы Опции просмотра
  #1  
Старый 11.11.2008, 11:42
BasterBot BasterBot вне форума
Senior Member
 
Регистрация: 23.04.2008
Сообщений: 21,904
(Pop) Орбакайте Кристина - Перелетная птица - 2003, FLAC (image .cue), lossless
Орбакайте Кристина - Перелетная птица
Жанр: Pop
Год выпуска диска: 2003
Производитель диска: Россия
Аудио кодек: FLAC
Тип рипа: image .cue
Битрейт аудио: lossless
Продолжительность: 41:09
Трэклист:
1. Перелетная птица
2. Просто любить тебя (с А. Руссо)
3. Свет твоей любви
4. Губки бантиком
5. Я к тебе не вернусь
6. Телефонный разговор
7. Ты буди меня
8. Я не сказала
9. Лето, лето
10. Дельфин и русалка
11. Я к тебе не вернусь (ремикс)
12. Свет твоей любви (ремикс)
Лог:Exact Audio Copy V0.99 prebeta 4 from 23. January 2008
Отчёт EAC об извлечении, выполненном 7. июня 2008, 21:18
К. Орбакайте / Перелетная птица
Дисковод: _NEC NR-7900A Adapter: 1 ID: 0
Режим чтения : Достоверность
Использование точного потока : Да
Отключение кэша аудио : Да
Использование указателей C2 : Нет
Коррекция смещения при чтении : 685
Способность читать области Lead-in и Lead-out : Нет
Заполнение пропущенных сэмплов тишиной : Да
Удаление блоков с тишиной в начале и конце : Нет
При вычислениях CRC использовались нулевые сэмплы : Да
Интерфейс : Установленный внешний ASPI-интерфейс
Выходной формат : Внутренние WAV-операции
Формат сэмплов : 44.100 Гц; 16 бит; стерео
TOC извлечённого CD
Трек | Старт | Длительность | Начальный сектор | Конечный сектор
---------------------------------------------------------------------
1 | 0:00.00 | 3:10.00 | 0 | 14249
2 | 3:10.00 | 3:44.00 | 14250 | 31049
3 | 6:54.00 | 3:34.00 | 31050 | 47099
4 | 10:28.00 | 2:21.00 | 47100 | 57674
5 | 12:49.00 | 3:27.00 | 57675 | 73199
6 | 16:16.00 | 3:32.00 | 73200 | 89099
7 | 19:48.00 | 4:26.00 | 89100 | 109049
8 | 24:14.00 | 2:40.00 | 109050 | 121049
9 | 26:54.00 | 4:09.00 | 121050 | 139724
10 | 31:03.00 | 3:16.00 | 139725 | 154424
11 | 34:19.00 | 3:27.00 | 154425 | 169949
12 | 37:46.00 | 3:23.00 | 169950 | 185174
13 | 43:41.00 | 11:32.36 | 196575 | 248510
Характеристики диапазона извлечения и сообщения об ошибках
Выбранный диапазон
Имя файла E:\FLAC\Орбакайте Кристина - Перелетная птица\К. Орбакайте - Перелетная птица.wav
Пиковый уровень 98.9 %
Качество диапазона 100.0 %
CRC копии A8D6C5AE
Копирование... OK
Ошибок не произошло
AccurateRip: сводка
Трек 1 нет в базе данных
Трек 2 нет в базе данных
Трек 3 нет в базе данных
Трек 4 нет в базе данных
Трек 5 нет в базе данных
Трек 6 нет в базе данных
Трек 7 нет в базе данных
Трек 8 нет в базе данных
Трек 9 нет в базе данных
Трек 10 нет в базе данных
Трек 11 нет в базе данных
Трек 12 нет в базе данных
Ни одного трека нет в базе AccurateRip
Конец отчёта

Доп. информация: В раздаче обложки с разрешением 300 dpi и сюрприз
Вложения:
Тип файла: torrent
Ответить с цитированием
Ответ


Опции темы
Опции просмотра

Ваши права в разделе
Вы не можете создавать темы
Вы не можете отвечать на сообщения
Вы не можете прикреплять файлы
Вы не можете редактировать сообщения

BB коды Вкл.
Смайлы Вкл.
[IMG] код Вкл.
HTML код Выкл.

Профессиональная разработка сайтов - Webstudio-pro.net