Скачать торрент музыку, аудиокниги, фильмы, сериалы бесплатно

 
 
Опции темы Опции просмотра
  #1  
Старый 24.01.2009, 05:17
BasterBot BasterBot вне форума
Senior Member
 
Регистрация: 23.04.2008
Сообщений: 21,904
(PopMusic) Wet Wet Wet - Picture this - 1995, APE (image .cue), lossless
Wet Wet Wet - Picture this
Страна: Великобритания
Жанр: PopMusic, Soul
Дата выпуска: 10 апреля 1995
Формат: [ Ссылки видят только зарегистрированные пользователи ]
Битрейт аудио: lossless
01 - Julia Says [4:09]
02 - After the Love Goes [3:50]
03 - Somewhere Somehow [3:51]
04 - Gypsy Girl [2:11]
05 - Don't Want to Forgive Me Now [2:55]
06 - She Might Never Know [4:44]
07 - Someone Like You [3:48]
08 - Love is My Shepherd [3:23]
09 - She's All on My Mind [3:55]
10 - Morning [4:08]
11 - Home Tonight [4:07]
12 - Love Is All Around [4:04]
-Marti Pellow - вокалист
Tommy Cunningham - барабанщик, вокалист
Graeme Clark - бас-гитарист, вокалист
Neil Mitchell - клавишник, вокалист
Graeme Duffin - соло-гитарист, вокалист - "неофициальный" член группы-
Wet Wet Wet — популярная шотландская вокальная поп-группа, которая возникла в 1982 году и три года спустя подписала контракт со звукозаписывающей компанией PolyGram.
В числе наиболее известных их хитов — кавер-версия песни шестидесятых «With a Little Help from My Friends» (1988) и крупный хит собственного сочинения — рождественская баллада «Goodnight Girl», которая возглавляла британские чарты в течение пяти недель в декабре 1991 — январе 1992 гг. Самой успешной композицией группы принято считать кавер-версию песни «Love Is All Around» (1994), которая прозвучала в фильме «Четыре свадьбы и одни похороны» и вошла в альбом "Picture This". Будучи выпущенной на сингле, «Love Is All Around» оставалась во главе национального хит-парада Великобритании на протяжении 15 недель и не побила рекорд Брайана Адамса (16 недель на вершине) только потому, что члены группы потребовали изъять навязшую у них в зубах запись из продажи.

Важно: В раздачу включены отсканированные в наивысшем качестве обе обложки диска и прилагавшийся к нему двадцатистраничный буклет
Exact Audio Copy V0.99 prebeta 3 from 28. July 2007
EAC extraction logfile from 22. September 2007, 0:21
Wet Wet Wet / Picture this
Used drive : _NEC DVD_RW ND-3520A Adapter: 1 ID: 0
Read mode : Secure
Utilize accurate stream : Yes
Defeat audio cache : Yes
Make use of C2 pointers : No
Read offset correction : 48
Overread into Lead-In and Lead-Out : No
Fill up missing offset samples with silence : Yes
Delete leading and trailing silent blocks : No
Null samples used in CRC calculations : Yes
Used interface : Installed external ASPI interface
Used output format : Internal WAV Routines
Sample format : 44.100 Hz; 16 Bit; Stereo
TOC of the extracted CD
Track | Start | Length | Start sector | End sector
---------------------------------------------------------
1 | 0:00.00 | 4:09.17 | 0 | 18691
2 | 4:09.17 | 3:50.28 | 18692 | 35969
3 | 7:59.45 | 3:51.22 | 35970 | 53316
4 | 11:50.67 | 2:11.55 | 53317 | 63196
5 | 14:02.47 | 2:55.63 | 63197 | 76384
6 | 16:58.35 | 4:44.55 | 76385 | 97739
7 | 21:43.15 | 3:48.00 | 97740 | 114839
8 | 25:31.15 | 3:23.07 | 114840 | 130071
9 | 28:54.22 | 3:55.70 | 130072 | 147766
10 | 32:50.17 | 4:08.70 | 147767 | 166436
11 | 36:59.12 | 4:07.03 | 166437 | 184964
12 | 41:06.15 | 4:04.05 | 184965 | 203269
Range status and errors
Selected range
Filename D:\*****\******\Wet Wet Wet - Picture this\Wet Wet Wet - Picture this.wav
Peak level 97.3 %
Range quality 100.0 %
Test CRC 7F7693CB
Copy CRC 7F7693CB
Copy OK
No errors occurred
End of status report



Спасибо [URL="http://torrents.ru/forum/profile.php?mode=viewprofile
Вложения:
Тип файла: torrent

Последний раз редактировалось BasterBot, 24.01.2009 в 05:20.
Ответить с цитированием
 


Опции темы
Опции просмотра

Ваши права в разделе
Вы не можете создавать темы
Вы не можете отвечать на сообщения
Вы не можете прикреплять файлы
Вы не можете редактировать сообщения

BB коды Вкл.
Смайлы Вкл.
[IMG] код Вкл.
HTML код Выкл.

Профессиональная разработка сайтов - Webstudio-pro.net