Скачать торрент музыку, аудиокниги, фильмы, сериалы бесплатно

Ответ
 
Опции темы Опции просмотра
  #1  
Старый 24.01.2009, 13:23
BasterBot BasterBot вне форума
Senior Member
 
Регистрация: 23.04.2008
Сообщений: 21,904
(Downtempo, Dub, Trip Hop) Peace Orchestra – 2 альбома - 1999, 2002, FLAC (image .cue), lossless
Peace Orchestra – 2 альбома
Страна: Австрия
Формат: FLAC (image .cue)
Битрейт аудио: lossless
Peace Orchestra – Peace Orchestra
Жанр: Downtempo, Dub, Trip Hop
Год выпуска: 1999
Продолжительность: 00:57:21
Трэклист:
01. The Man Part One (4:45)
02. Meister Petz (6:16)
03. Double Drums (9:23)
04. Domination (8:35)
05. Marakesh (6:56)
06. Henry (6:06)
07. Who Am I (5:58)
08. Shining (5:02)
09. The Man Part Two (4:21)Exact Audio Copy V0.99 prebeta 3 from 28. July 2007
Отчёт EAC об извлечении, выполненном 24. ноября 2007, 17:01
Peace Orchestra / Peace Orchestra
Дисковод: PIONEER DVD-RW DVR-K06RS Adapter: 1 ID: 0
Режим чтения : Достоверность
Использование точного потока : Да
Отключение кэша аудио : Да
Использование указателей C2 : Нет
Коррекция смещения при чтении : 48
Способность читать области Lead-in и Lead-out : Нет
Заполнение пропущенных сэмплов тишиной : Да
Удаление блоков с тишиной в начале и конце : Нет
При вычислениях CRC использовались нулевые сэмплы : Да
Интерфейс : Встроенный Win32-интерфейс для Win NT/2000
Выходной формат : Пользовательский кодировщик
Выбранный битрейт : 128 kBit/s
Качество : Высокий
Добавление ID3-тэга : Нет
Утилита сжатия : C:\Program Files\FLAC\flac.exe
Дополнительные параметры : -T "artist=%a" -T "title=%t" -T "album=%g" -T "date=%y" -T "tracknumber=%n" -T "genre=%m" -5 %s
TOC извлечённого CD
Трек | Старт | Длительность | Начальный сектор | Конечный сектор
---------------------------------------------------------------------
1 | 0:00.00 | 4:45.09 | 0 | 21383
2 | 4:45.09 | 6:16.13 | 21384 | 49596
3 | 11:01.22 | 9:22.68 | 49597 | 91814
4 | 20:24.15 | 8:35.31 | 91815 | 130470
5 | 28:59.46 | 6:55.55 | 130471 | 161650
6 | 35:55.26 | 6:05.41 | 161651 | 189066
7 | 42:00.67 | 5:57.62 | 189067 | 215903
8 | 47:58.54 | 5:01.44 | 215904 | 238522
9 | 53:00.23 | 4:21.08 | 238523 | 258105
Характеристики диапазона извлечения и сообщения об ошибках
Выбранный диапазон
Имя файла D:\torrents\releasing\Peace Orchestra - Peace Orchestra.wav
Пиковый уровень 99.9 %
Качество диапазона 100.0 %
CRC копии B0B03C85
Копирование... OK
Ошибок не произошло
Конец отчёта

Доп. информация: Первый альбом собственного проекта Питера Крудера, одного из участников дуэта Kruder
Вложения:
Тип файла: torrent

Последний раз редактировалось BasterBot, 24.01.2009 в 13:26.
Ответить с цитированием
Ответ


Опции темы
Опции просмотра

Ваши права в разделе
Вы не можете создавать темы
Вы не можете отвечать на сообщения
Вы не можете прикреплять файлы
Вы не можете редактировать сообщения

BB коды Вкл.
Смайлы Вкл.
[IMG] код Вкл.
HTML код Выкл.

Профессиональная разработка сайтов - Webstudio-pro.net