Скачать торрент музыку, аудиокниги, фильмы, сериалы бесплатно

Ответ
 
Опции темы Опции просмотра
  #1  
Старый 20.09.2008, 03:21
BasterBot BasterBot вне форума
Senior Member
 
Регистрация: 23.04.2008
Сообщений: 21,941
(Pop) Марина Журавлева - Белая черёмуха - 1991, FLAC (image .cue), lossless
Марина Журавлева - Белая черёмуха
Жанр: Pop
Год выпуска диска: 1991
Производитель диска: Jeff Records
Аудио кодек: FLAC
Тип рипа: image .cue
Битрейт аудио: lossless
Продолжительность: 34:58
Трэклист:
01. Белая черёмуха 3:51
02. Забудь меня, забудь 3:41
03. Розовый рассвет 3:08
04. На сердце рана у меня 4:09
05. Прости, прощай 3:22
06. Последний тост 3:01
07. Счастливый случай 2:28
08. Эти ночи 2:15
09. Помоги мне 4:47
10. Мне приятна губ твоих прохлада 2:41
11. Не забудьExact Audio Copy V0.99 prebeta 4 from 23. January 2008
Отчёт EAC об извлечении, выполненном 5. августа 2008, 19:50
Марина Журавлева / Белая черемуха
Дисковод: _NEC DVD_RW ND-3551A Adapter: 5 ID: 0
Режим чтения : Достоверность
Использование точного потока : Да
Отключение кэша аудио : Да
Использование указателей C2 : Нет
Коррекция смещения при чтении : 48
Способность читать области Lead-in и Lead-out : Нет
Заполнение пропущенных сэмплов тишиной : Да
Удаление блоков с тишиной в начале и конце : Нет
При вычислениях CRC использовались нулевые сэмплы : Да
Интерфейс : Встроенный Win32-интерфейс для Win NT/2000
Выходной формат : Пользовательский кодировщик
Выбранный битрейт : 768 kBit/s
Качество : Высокий
Добавление ID3-тэга : Нет
Утилита сжатия : C:\Program Files\Exact Audio Copy\FLAC\FLAC.EXE
Дополнительные параметры : -6 -V -T "ARTIST=%a" -T "TITLE=%t" -T "ALBUM=%g" -T "DATE=%y" -T "TRACKNUMBER=%n" -T "GENRE=%m" -T "COMMENT=%e" %s -o %d
TOC извлечённого CD
Трек | Старт | Длительность | Начальный сектор | Конечный сектор
---------------------------------------------------------------------
1 | 0:00.35 | 3:57.05 | 35 | 17814
2 | 3:57.40 | 3:12.25 | 17815 | 32239
3 | 7:09.65 | 3:29.12 | 32240 | 47926
4 | 10:39.02 | 4:10.08 | 47927 | 66684
5 | 14:49.10 | 2:35.10 | 66685 | 78319
6 | 17:24.20 | 4:22.42 | 78320 | 98011
7 | 21:46.62 | 3:25.63 | 98012 | 113449
8 | 25:12.50 | 3:13.70 | 113450 | 127994
9 | 28:26.45 | 3:30.20 | 127995 | 143764
10 | 31:56.65 | 3:01.22 | 143765 | 157361
Характеристики диапазона извлечения и сообщения об ошибках
Выбранный диапазон
Имя файла F:\Torrents\Марина Журавлёва_Белая черёмуха ` 91\Марина Журавлева - Белая черемуха.wav
Пиковый уровень 99.9 %
Качество диапазона 100.0 %
CRC копии 715E4D40
Копирование... OK
Ошибок не произошло
Конец отчёта
Вложения:
Тип файла: torrent 19.6 Кб , (3)

Последний раз редактировалось BasterBot, 06.10.2008 в 11:08.
Ответить с цитированием
  #2  
Старый 14.01.2010, 20:02
b1591855 b1591855 вне форума
Junior Member
 
Регистрация: 14.01.2010
Сообщений: 1
вы что раздаете смотрите ? треклист и куе файл не совпадают (как и в некоторых дркугих местах)
Ответить с цитированием
Ответ


Опции темы
Опции просмотра

Ваши права в разделе
Вы не можете создавать темы
Вы не можете отвечать на сообщения
Вы не можете прикреплять файлы
Вы не можете редактировать сообщения

BB коды Вкл.
Смайлы Вкл.
[IMG] код Вкл.
HTML код Выкл.

Профессиональная разработка сайтов - Webstudio-pro.net