Скачать торрент музыку, аудиокниги, фильмы, сериалы бесплатно

Ответ
 
Опции темы Опции просмотра
  #1  
Старый 24.01.2009, 11:41
BasterBot BasterBot вне форума
Senior Member
 
Регистрация: 23.04.2008
Сообщений: 21,943
(Folk-Rock) BLACKMORE'S NIGHT - "Paris Moon" - 2007, APE (image .cue), lossless
BLACKMORE'S NIGHT - "Paris Moon"

Страна: UK
Жанр: Folk-Rock
Год выпуска: 2007
Формат: APE (image .cue)
Битрейт аудио: lossless
Продолжительность: 76min
Трэклист:
1. Past Times With Good Company/Rainbow Blues
2. Play Minstrel Play
3. World Of Stone
4. Under A Violet Moon
5. Minstrel Hall
6. Home Again
7. Ariel
8. The Clock Ticks On
9. Fires At Midnight
Bonus Tracks:
1. The Village Lanterne (studio version)
2. All Because of You (radio edit)
[ Ссылки видят только зарегистрированные пользователи ]
Exact Audio Copy V0.99 prebeta 3 from 28. July 2007
Отчёт EAC об извлечении, выполненном 20. ноября 2007, 23:03
Blackmore's Night / Paris Moon
Дисковод: _NEC DVD_RW ND-3500AG Adapter: 1 ID: 0
Режим чтения : Достоверность
Использование точного потока : Да
Отключение кэша аудио : Да
Использование указателей C2 : Нет
Коррекция смещения при чтении : 48
Способность читать области Lead-in и Lead-out : Нет
Заполнение пропущенных сэмплов тишиной : Да
Удаление блоков с тишиной в начале и конце : Нет
При вычислениях CRC использовались нулевые сэмплы : Да
Интерфейс : Установленный внешний ASPI-интерфейс
Выходной формат : Внутренние WAV-операции
Формат сэмплов : 44.100 Гц; 16 бит; стерео
TOC извлечённого CD
Трек | Старт | Длительность | Начальный сектор | Конечный сектор
---------------------------------------------------------------------
1 | 0:00.00 | 7:20.46 | 0 | 33045
2 | 7:20.46 | 4:55.69 | 33046 | 55239
3 | 12:16.40 | 5:42.29 | 55240 | 80918
4 | 17:58.69 | 4:36.12 | 80919 | 101630
5 | 22:35.06 | 4:51.26 | 101631 | 123481
6 | 27:26.32 | 10:32.34 | 123482 | 170915
7 | 37:58.66 | 9:16.49 | 170916 | 212664
8 | 47:15.40 | 7:45.16 | 212665 | 247555
9 | 55:00.56 | 12:36.00 | 247556 | 304255
10 | 67:36.56 | 5:11.61 | 304256 | 327641
11 | 72:48.42 | 3:33.27 | 327642 | 343643
Характеристики диапазона извлечения и сообщения об ошибках
Выбранный диапазон
Имя файла C:\Blackmore's Night - Paris Moon.wav
Пиковый уровень 98.8 %
Качество диапазона 100.0 %
CRC копии A3ADE021
Копирование... OK
Ошибок не произошло
Конец отчёта

Доп. информация: Бонус Audio CD входит в специальное издание [ Ссылки видят только зарегистрированные пользователи ]
З.Ы. Выражаю ОГРОМНУЮ благодарность fox123 за диски и просто неоценимую помощь в создании и подготовке релиза
Вложения:
Тип файла: torrent torrents-ua.com_23825.torrent 19.4 Кб , (1)

Последний раз редактировалось BasterBot, 24.01.2009 в 11:46.
Ответить с цитированием
Ответ


Опции темы
Опции просмотра

Ваши права в разделе
Вы не можете создавать темы
Вы не можете отвечать на сообщения
Вы не можете прикреплять файлы
Вы не можете редактировать сообщения

BB коды Вкл.
Смайлы Вкл.
[IMG] код Вкл.
HTML код Выкл.

Профессиональная разработка сайтов - Webstudio-pro.net