Скачать торрент музыку, аудиокниги, фильмы, сериалы бесплатно

Ответ
 
Опции темы Опции просмотра
  #1  
Старый 10.11.2008, 14:14
BasterBot BasterBot вне форума
Senior Member
 
Регистрация: 23.04.2008
Сообщений: 21,942
(Techno) Scooter - The Ultimate Aural Orgasm - 2007, APE (image .cue), lossless
Scooter - The Ultimate Aural Orgasm
Страна: Германия
Жанр: Techno
Год выпуска: 2007
Формат: APE (image .cue)
Битрейт аудио: lossless
Продолжительность: 50:16.70
Трэклист:
1. Horny in Jericho (2:50) (Сигнал в Иерихоне)
2. Behind the Cow (3:36) (За коровой)
3. Does the Fish have Chips? (3:25) (Есть ли у рыбы чипсы?)
4. The United Vibe (3:49) (Единый дух)
5. Lass Uns Tanzen (4:28) (Позвольте нам танцевать)
6. U.F.O Phenomena (5:04) (Феномен НЛО)
7. Ratty’s Revenge (4:50) (Месть Ratty[1])
8. The Shit that Killed Elvis (3:56) (Дерьмо, убившее Элвиса)
9. Imaginary Battle (3:57) (Воображаемая битва)
10. Scarborough Affair (4:26) (Дело Скарборо)
11. East Sands Anthem (4:14) (Гимн восточных песков)
12. Love is an Ocean (5:45) (Любовь — это Океан)
Доп. информация:
Российская лицензия.


Exact Audio Copy V0.99 prebeta 1 from 25. May 2007
Отчёт EAC об извлечении, выполненном 7. сентября 2007, 22:35
Scooter / The Ultimate Aural Orgasm
Дисковод: ASUS DRW-1608P Adapter: 0 ID: 3
Режим чтения : Достоверность
Использование точного потока : Да
Отключение кэша аудио : Да
Использование указателей C2 : Нет
Коррекция смещения при чтении : 48
Способность читать области Lead-in и Lead-out : Да
Заполнение пропущенных сэмплов тишиной : Да
Удаление блоков с тишиной в начале и конце : Нет
Интерфейс : Встроенный Win32-интерфейс для Win NT/2000
Выходной формат : Внутренние WAV-операции
Формат сэмплов : 44.100 Гц; 16 бит; стерео
TOC извлечённого CD
Трек | Старт | Длительность | Начальный сектор | Конечный сектор
---------------------------------------------------------------------
1 | 0:00.00 | 2:45.19 | 0 | 12393
2 | 2:45.19 | 3:34.71 | 12394 | 28514
3 | 6:20.15 | 3:26.02 | 28515 | 43966
4 | 9:46.17 | 3:48.69 | 43967 | 61135
5 | 13:35.11 | 4:27.55 | 61136 | 81215
6 | 18:02.66 | 5:05.45 | 81216 | 104135
7 | 23:08.36 | 4:49.59 | 104136 | 125869
8 | 27:58.20 | 3:56.14 | 125870 | 143583
9 | 31:54.34 | 3:57.03 | 143584 | 161361
10 | 35:51.37 | 4:26.09 | 161362 | 181320
11 | 40:17.46 | 4:13.71 | 181321 | 200366
12 | 44:31.42 | 5:45.29 | 200367 | 226270
Характеристики диапазона извлечения и сообщения об ошибках
Выбранный диапазон
Имя файла G:\music\Lossless\Scooter\Scooter - The Ultimate Aural Orgasm.wav
Пиковый уровень 98.8 %
Качество диапазона 100.0 %
CRC копии 8CC583F2
Копирование... OK
Ошибок не произошло
Конец отчёта

[ Ссылки видят только зарегистрированные пользователи ]
Вложения:

Последний раз редактировалось BasterBot, 23.01.2009 в 05:09.
Ответить с цитированием
Ответ


Опции темы
Опции просмотра

Ваши права в разделе
Вы не можете создавать темы
Вы не можете отвечать на сообщения
Вы не можете прикреплять файлы
Вы не можете редактировать сообщения

BB коды Вкл.
Смайлы Вкл.
[IMG] код Вкл.
HTML код Выкл.

Профессиональная разработка сайтов - Webstudio-pro.net