Скачать торрент музыку, аудиокниги, фильмы, сериалы бесплатно

Ответ
 
Опции темы Опции просмотра
  #1  
Старый 11.11.2008, 12:56
BasterBot BasterBot вне форума
Senior Member
 
Регистрация: 23.04.2008
Сообщений: 21,943
(Classic) Чайковский Петр - Симфония №6 - 1993, FLAC (image .cue), lossless
Чайковский Петр - Симфония №6
Жанр: Classic
Год выпуска диска: 1993
Производитель диска: United Kingdom
Аудио кодек: FLAC
Тип рипа: image .cue
Битрейт аудио: lossless
Продолжительность: 1:07:54
Трэклист:
01. Adagio - Allegro non troppo [0:18:04.70]
02. Allegro con grazia [0:08:00.05]
03. Allegro molto vivace [0:09:15.07]
04. Finale - Adagio lamentoso [0:10:04.20]
05. Marche Slave, OP 31 [0:07:00.23]
06. Overture 1812, OP 49 [0:15:29.47]
Доп. информация:
Полное название CD:
Tchaпkovsky - Symph. n.6 in B min, OP 74 - Marche Slave, OP 31 - Overture 1812, OP 49 Interp. London Festival Orchestra (Robert Ashley)

Exact Audio Copy V0.99 prebeta 4 from 23. January 2008
Отчёт EAC об извлечении, выполненном 13. августа 2008, 5:42
Tchaпkovsky / Symph. n.6 in B min, OP 74 - Marche Slave, OP 31 - Overture 1812, OP 49
Дисковод: _NEC DVD_RW ND-3520AW Adapter: 4 ID: 0
Режим чтения : Достоверность
Использование точного потока : Да
Отключение кэша аудио : Да
Использование указателей C2 : Нет
Коррекция смещения при чтении : 48
Способность читать области Lead-in и Lead-out : Нет
Заполнение пропущенных сэмплов тишиной : Да
Удаление блоков с тишиной в начале и конце : Нет
При вычислениях CRC использовались нулевые сэмплы : Нет
Интерфейс : Установленный внешний ASPI-интерфейс
Выходной формат : Внутренние WAV-операции
Формат сэмплов : 44.100 Гц; 16 бит; стерео
TOC извлечённого CD
Трек | Старт | Длительность | Начальный сектор | Конечный сектор
---------------------------------------------------------------------
1 | 0:00.00 | 18:04.70 | 0 | 81369
2 | 18:04.70 | 8:00.05 | 81370 | 117374
3 | 26:05.00 | 9:15.07 | 117375 | 159006
4 | 35:20.07 | 10:04.20 | 159007 | 204326
5 | 45:24.27 | 7:00.23 | 204327 | 235849
6 | 52:24.50 | 15:29.47 | 235850 | 305571
Характеристики диапазона извлечения и сообщения об ошибках
Выбранный диапазон
Имя файла G:\Music\Torrents\Tchaпkovsky\Tchaпkovsky - Symphony n6.wav
Пиковый уровень 88.2 %
Качество диапазона 99.8 %
CRC копии F8DE89B4
Копирование завершено
Ошибок не произошло
Конец отчёта

[ Ссылки видят только зарегистрированные пользователи ]
Вложения:
Тип файла: torrent torrents-ua.com_1097234_936491.torrent 11.0 Кб , (0)

Последний раз редактировалось BasterBot, 11.11.2008 в 12:59.
Ответить с цитированием
Ответ


Опции темы
Опции просмотра

Ваши права в разделе
Вы не можете создавать темы
Вы не можете отвечать на сообщения
Вы не можете прикреплять файлы
Вы не можете редактировать сообщения

BB коды Вкл.
Смайлы Вкл.
[IMG] код Вкл.
HTML код Выкл.

Профессиональная разработка сайтов - Webstudio-pro.net