Скачать торрент музыку, аудиокниги, фильмы, сериалы бесплатно

Ответ
 
Опции темы Опции просмотра
  #1  
Старый 10.11.2008, 17:33
BasterBot BasterBot вне форума
Senior Member
 
Регистрация: 23.04.2008
Сообщений: 21,943
(Православие) Колокольные звоны (Троице-Сергиева Лавра, Псково-Печерский монастырь и др.) - 2003, FLAC (image .cue), lossless
Колокольные звоны (Троице-Сергиева Лавра, Псково-Печерский монастырь, Новодевичий монастырь, Данилов монастырь, Богоявленский патриарший собор в Елохове)
Страна: Россия
Жанр: Колокольный звон
Год выпуска: 2003
Формат: FLAC (image .cue)
Битрейт аудио: lossless
Продолжительность: 1:10:05
Трек-лист:
Троице-Сергиева Лавра:
1. Звонница Духовской церкви [5.21]
2. Большая лаврская колокольня [12.06]
Псково-Печерский монастырь:
3. Звонница Псково-Печерского монастыря [20.47]
Новодевичий монастырь:
4. Благовест. Посхальный трезвон [12.20]
Данилов монастырь:
5. Благовест. Пасхальный трезвон [8.35]
Богоявленский Патриарший Собор в Елохове:
6. Благовест. Пасхальный трезвон [10.41]
См. также: эта (и не только) [ Ссылки видят только зарегистрированные пользователи ]
[ Ссылки видят только зарегистрированные пользователи ]
[ Ссылки видят только зарегистрированные пользователи ]
[ Ссылки видят только зарегистрированные пользователи ]

Exact Audio Copy V0.99 prebeta 4 from 23. January 2008
Отчёт EAC об извлечении, выполненном 22. марта 2008, 16:07
Various / Колокольные звоны
Дисковод: TSSTcorpCDW/DVD TS-L462C Adapter: 1 ID: 0
Режим чтения : Достоверность
Использование точного потока : Да
Отключение кэша аудио : Да
Использование указателей C2 : Нет
Коррекция смещения при чтении : 6
Способность читать области Lead-in и Lead-out : Нет
Заполнение пропущенных сэмплов тишиной : Да
Удаление блоков с тишиной в начале и конце : Нет
При вычислениях CRC использовались нулевые сэмплы : Да
Интерфейс : Встроенный Win32-интерфейс для Win NT/2000
Выходной формат : Внутренние WAV-операции
Формат сэмплов : 44.100 Гц; 16 бит; стерео
TOC извлечённого CD
Трек | Старт | Длительность | Начальный сектор | Конечный сектор
---------------------------------------------------------------------
1 | 0:00.00 | 5:23.34 | 0 | 24258
2 | 5:23.34 | 12:08.17 | 24259 | 78875
3 | 17:31.51 | 20:49.30 | 78876 | 172580
4 | 38:21.06 | 12:22.11 | 172581 | 228241
5 | 50:43.17 | 8:37.68 | 228242 | 267084
6 | 59:21.10 | 10:41.65 | 267085 | 315224
Характеристики диапазона извлечения и сообщения об ошибках
Выбранный диапазон
Имя файла D:\Мои документы\Коловольные звоны\Various - Колокольные звоны.wav
Пиковый уровень 99.3 %
Качество диапазона 100.0 %
CRC теста 505E5DFA
CRC копии 505E5DFA
Копирование... OK
Ошибок не произошло
Конец отчёта
Вложения:
Тип файла: torrent torrents-ua.com_745265_625868.torrent 13.3 Кб , (4)

Последний раз редактировалось BasterBot, 10.11.2008 в 17:37.
Ответить с цитированием
Ответ


Опции темы
Опции просмотра

Ваши права в разделе
Вы не можете создавать темы
Вы не можете отвечать на сообщения
Вы не можете прикреплять файлы
Вы не можете редактировать сообщения

BB коды Вкл.
Смайлы Вкл.
[IMG] код Вкл.
HTML код Выкл.

Профессиональная разработка сайтов - Webstudio-pro.net