Скачать торрент музыку, аудиокниги, фильмы, сериалы бесплатно

Ответ
 
Опции темы Опции просмотра
  #1  
Старый 11.11.2008, 12:35
BasterBot BasterBot вне форума
Senior Member
 
Регистрация: 23.04.2008
Сообщений: 21,904
(PopMusic) Jennifer Rush - Discography (Full-length Albums) - 1984-1997, APE (image .cue), lossless
Jennifer Rush - Discography (Full-length Albums)
Все рипы были сделаны с оригинальных дисков.
Дискография (англоязычные номерные альбомы):
1984 "International Version"
1985 "Movin' "
1987 "Heart Over Mind"
1988 "Passion"
1989 "Wings Of Desire"
1992 "Jennifer Rush"
1995 "Out Of My Hands"
1997 "Credo"

Страна: USA
Жанр: Pop Music
Год выпуска: 1984
Формат: APE (image .cue)
Битрейт аудио: lossless
Продолжительность: 39:14
Трэклист:
1.Madonna's Eyes
2.25 Lovers
3.Come Give Me Your Hand *
4.Nobody Move
5.Never Gonna Turn Back Again
6.Ring Of Eyes
7.Into The Dreams *
8.I See A Shadow ( Not A Fantasy )
9.Surrender
10.The Power Of Love
Информация об артисте:
__________Родившаяся и выросшая в Нью-Йорке Дженнифер Раш приехала в Германию в 1982 со своим отцом, чтобы подписать контракт с CBS/Columbia Records на свою первую запись. Затем она жила в Мюнхене в течение нескольких лет, чтобы заняться своей карьерой, которая началась с ее дебютного сингла "Tonight/Listen To What I Say", который она выпустила под именем Хайди Штерн. Немецкое звучание имени было дано её матерью Барбарой, у которой было faible для немецких имен и которая следовала за своим мужем Морисом Штерном (отцом Дженнифер) на протяжении нескольких лет по Германии, где он пел в самых больших зданиях оперы. Замена Хайди Штерн на Дженнифер Раш тот час же принесла успех. Следующие синглы "Into My Dreams" (май 1983) и "Come Give Me Your Hand" (сентябрь 1983) были признаны и высоко оценены радио. И, наконец, третий сингл Дженнифер Раш привел к известности молодую Американскую леди с несравнимым голосом: "25 Lovers" (весна, 1984) стал большим хитом во всей Европе, и последовавший за ним известный релиз "Ring Of Ice" из дебютного альбома "Jennifer Rush" (1984), который стал мегаселлером, доказали, что она определенно не была чудом одного хита. Следующий шаг, которым она покорила мир, это "Power Of Love" - песня, которая не только заняла место №1 в мире, но также была записана в историю музыки. Песня стала лучшим по продажам хитом женского мастера своего дела в истории Английской музыкальной индустрии и зарегистрирована в Книге рекордов Гиннеса. В Испании Дженнифер стала №1 с испанской версией песни (" Si Tu Eres Mi Hombre Y Yo Tu Mujer") в то время как Английский оригинал занял 10-е место. Появление в списках американского Биллборда и списках лидеров от Скандинавии до Южной Африки "The Power Of Love" не только упрочила репутацию Дженнифер Раш как новой яркой звезды, но и стала одним из наиболее успешных музыкальных произведений, а также самых признанных песен о любви на сегодня. Годом позже канадская певица Селин Дион была одной из артисток, записывающих свои собственные версии бесконечной песни Дженнифер, достигающей №1 Биллборда США.Отчёт EAC об извлечении, выполненном 26. апреля 2008, 9:46 для диска:
Jennifer Rush / International Version
Дисковод: PLEXTOR CD-R PX-W5224A Adapter: 1 ID: 1
Режим чтения: Достоверный (C2: нет, Точный поток: да, Отключение кэша: да)
Коррекция смещения при чтении: 30
Способность читать области Lead-in и Lead-out : Да
Выходной формат: Monkey's Audio Lossless Encoder v3.99 DLL
High Lossless Compression
Другие параметры:
Заполнение пропущенных сэмплов тишиной : Да
Удаление блоков с тишиной в начале и конце : Нет
Установленный внешний ASPI-интерфейс
Характеристики диапазона извлечения и сообщения об ошибках
Выбранный диапазон
Имя файла D:\Releases\JenniferRush_1984_InternationalVersion \JenniferRush_1984_InternationalVersion.ape
Пиковый уровень 100.0 %
Качество диапазона 100.0 %
CRC 6C15B451
Копирование... OK
Ошибок не произошло
Конец отчёта

REM GENRE Pop
REM DATE 1984
REM DISCID 6C09320A
REM COMMENT "ExactAudioCopy v0.95b4"
CATALOG 0000000000000
PERFORMER "Jennifer Rush"
TITLE "International Version"
FILE "JenniferRush_1984_InternationalVersion.ape" WAVE
TRACK 01 AUDIO
TITLE "Madonna's Eyes"
PERFORMER "Jennifer Rush"
FLAGS PRE
INDEX 01 00:00:00
TRACK 02 AUDIO
TITLE "25 Lovers"
PERFORMER "Jennifer Rush"
FLAGS PRE
INDEX 00 03:42:10
INDEX 01 03:45:00
TRACK 03 AUDIO
TITLE "Come Give Me Your Hand"
PERFORMER "Jennifer Rush"
FLAGS PRE
INDEX 00 07:20:23
INDEX 01 07:21:55
TRACK 04 AUDIO
TITLE "Nobody Move"
PERFORMER "Jennifer Rush"
FLAGS PRE
INDEX 00 11:12:18
INDEX 01 11:13:17
TRACK 05 AUDIO
TITLE "Never Gonna Turn Back Again"
PERFORMER "Jennifer Rush"
FLAGS PRE
INDEX 00 14:27:21
INDEX 01 14:28:50
TRACK 06 AUDIO
TITLE "Ring Of Ice"
PERFORMER "Jennifer Rush"
FLAGS PRE
INDEX 00 17:57:42
INDEX 01 17:58:37
TRACK 07 AUDIO
TITLE "Into My Dreams"
PERFORMER "Jennifer Rush"
FLAGS PRE
INDEX 00 21:49:24
INDEX 01 21:51:05
TRACK 08 AUDIO
TITLE "I See A Shadow Not A Fantasy"
PERFORMER "Jennifer Rush"
FLAGS PRE
INDEX 00 25:53:16
INDEX 01 25:54:62
TRACK 09 AUDIO
TITLE "Surrender"
PERFORMER "Jennifer Rush"
FLAGS PRE
INDEX 01 30:12:67
TRACK 10 AUDIO
TITLE "The Power Of Love"
PERFORMER "Jennifer Rush"
FLAGS PRE
INDEX 00 33:27:32
INDEX 01 33:28:62




Страна: USA
Жанр: Pop Music
Год выпуска: 1985
Формат: APE (image .cue)
Битрейт аудио: lossless
Продолжительность: 36:49
Трэклист:
1. Destiny
2. Live Wire
3. Silent Killer
4. Automatic
5. If You're Ever Gonna Lose My Love
6. Ave Maria (Survivors Of A Different Kind)
7. Testify With My Heart
8. Yesterme, Yesteryou, Yesterday
9. The Right Time Has Come Now
10. Hero Of A Fool
Информация об исполнителе:
_____Пока мир праздновал "The Power Of Love" Дженнифер Раш выпустила первый сингл ее второго альбома "Movin'" в Германии и остальной части Европы: "Destiny" стала другой вершиной европейской десятки и когда второй альбом Дженнифер Раш "Movin' " занял 1-е место в списках альбомов Германии, ее дебютный альбом "Jennifer Rush" все еще занимал 3-е место! Мало того, что "Movin' " включал балладу-хит "If You're Ever Gonna Lose My Love" и всем известную "Ave Maria (Survivors Of A Different Kind)", который был выпущен одним синглом в 1991 году, но альбом также стал "Альбомом Года " в Германии. Собирая платиновые и дважды платиновые награды по всей Европе Дженни подготовилась к ее первому Европейскому туру "Movin' In Concert", который был полностью продан и сделал ее как большую звезду, которую любили и прослявляли ее поклонники.Отчёт EAC об извлечении, выполненном 16. февраля 2007, 9:37 для диска:
Jennifer Rush / Movin'
Дисковод: YAMAHA CRW2100E Adapter: 1 ID: 1
Режим чтения: Достоверный (C2: нет, Точный поток: да, Отключение кэша: да)
Коррекция смещения при чтении: 733
Способность читать области Lead-in и Lead-out : Нет
Выходной формат: Monkey's Audio Lossless Encoder v3.99 DLL
High Lossless Compression
Другие параметры:
Заполнение пропущенных сэмплов тишиной : Да
Удаление блоков с тишиной в начале и конце : Нет
Установленный внешний ASPI-интерфейс
Характеристики диапазона извлечения и сообщения об ошибках
Выбранный диапазон
Имя файла D:\Мои документы\Мои музыкальные записи\Jennifer Rush - Movin'.ape
Пиковый уровень 79.0 %
Качество диапазона 100.0 %
CRC AED32411
Копирование... OK
Ошибок не произошло
Конец отчёта

REM GENRE Rock
REM DATE 1985
REM DISCID 8808980A
REM COMMENT "ExactAudioCopy v0.95b4"
CATALOG 5099702671026
PERFORMER "Jennifer Rush"
TITLE "Movin'"
FILE "Jennifer Rush - Movin'.ape" WAVE
TRACK 01 AUDIO
TITLE "Destiny"
PERFORMER "Jennifer Rush"
INDEX 01 00:00:00
TRACK 02 AUDIO
TITLE "Live Wire"
PERFORMER "Jennifer Rush"
INDEX 00 03:36:55
INDEX 01 03:37:32
TRACK 03 AUDIO
TITLE "Silent Killer"
PERFORMER "Jennifer Rush"
INDEX 00 07:28:00
INDEX 01 07:31:42
TRACK 04 AUDIO
TITLE "Automatic"
PERFORMER "Jennifer Rush"
INDEX 00 11:05:10
INDEX 01 11:07:22
TRACK 05 AUDIO
TITLE "If You're Ever Gonna Lose My Love"
PERFORMER "Jennifer Rush"
INDEX 00 14:36:20
INDEX 01 14:37:07
TRACK 06 AUDIO
TITLE "Ave Maria (Survivors Of A Different Kind)"
PERFORMER "Jennifer Rush"
INDEX 00 18:27:27
INDEX 01 18:28:12
TRACK 07 AUDIO
TITLE "Testify With My Heart"
PERFORMER "Jennifer Rush"
INDEX 00 22:16:60
INDEX 01 22:19:30
TRACK 08 AUDIO
TITLE "Yesterme, Yesteryou, Yesterday"
PERFORMER "Jennifer Rush"
INDEX 00 25:38:10
INDEX 01 25:40:37
TRACK 09 AUDIO
TITLE "The Right Time Has Come Now"
PERFORMER "Jennifer Rush"
INDEX 00 28:56:00
INDEX 01 28:57:45
TRACK 10 AUDIO
TITLE "Hero Of A Fool"
PERFORMER "Jennifer Rush"
INDEX 00 32:59:27
INDEX 01 33:01:42




Страна: USA
Жанр: Pop Music
Год выпуска: 1987
Формат: APE (image .cue)
Битрейт аудио: lossless
Продолжительность: 41:59
Трэклист:
1.I Come Undone (Ellen Shipley)
2.Down To You (Jennifer)
3.Heart Over Mind (Taylor Phodes)
4.Search The Sky (Harold Faltermeyer)
5.Flames Of Paradise (Bruse Roberts)
6.Love Of A Stranger (Harold)
7.Heart Wars (Desmond Child)
8.Stronghold (Bruse Roberts)
9.Sidekick (Bruse Roberts)
10.Call My Name (Michael Bolton)
Информация об исполнителе:
_____Ожидание третьего альбома было чрезвычайно высоко, который Дженнифер Раш выпустила в марте 1987. Впервые она работала с несколькими различными продюсерскими командами, включая Десмонда Чайлда, который работал с Бон Джови и Шер раньше, Энди Голдмарком, Брюсом Робертсом, Гасом Даджеоном и Лауреатом Немецкой Академии Наград Гарольдом Фалтемейером. И "Heart Over Mind" стал лучшим по продаваемости альбомом Дженнифер Раш до настоящего времени. Устремляясь прямо к №1 во всех странах странах Европы, также как и в Южной Африке этот альбом был продан миллионным тиражом и был высоко оценен поклонниками и критиками. Альбом включал потрясающий сингл "I Come Undone" также как "Flames Of Paradise ", исполненный дуэтом Дженнифер с Елтоном Джоном (Топ 40 в списках Биллборда США!), который был выпущен отдельным треком как третий сингл. Дженнифер Раш была удостоена награды "Berolina" Германии, которая была сравнима Грэмми США и набрала большее количество голосов как наиболее популярная солистка. В сентябре она начала свое огромного Eвропейское турне "Heart Over Mind", которое снова было продано полностью. К концу 1987 "Heart Over Mind" был 2-ым по продаваемости после U2 "JoshuaTree".Отчёт EAC об извлечении, выполненном 15. августа 2008, 6:41 для диска:
Jennifer Rush / Heart Over Mind
Дисковод: PLEXTOR CD-R PX-W5224A Adapter: 1 ID: 1
Режим чтения: Достоверный (C2: нет, Точный поток: да, Отключение кэша: да)
Коррекция смещения при чтении: 30
Способность читать области Lead-in и Lead-out : Да
Выходной формат: Monkey's Audio Lossless Encoder v3.99 DLL
High Lossless Compression
Другие параметры:
Заполнение пропущенных сэмплов тишиной : Да
Удаление блоков с тишиной в начале и конце : Нет
Установленный внешний ASPI-интерфейс
Характеристики диапазона извлечения и сообщения об ошибках
Выбранный диапазон
Имя файла D:\Releases\JenniferRush_1987_HeartOverMind\Jennif erRush_1987_HeartOverMind.ape
Пиковый уровень 99.9 %
Качество диапазона 100.0 %
CRC 5A59FB49
Копирование... OK
Ошибок не произошло
Конец отчёта

REM DATE 1987
REM DISCID 7309D70A
REM COMMENT "ExactAudioCopy v0.95b4"
PERFORMER "Jennifer Rush"
TITLE "Heart Over Mind"
FILE "JenniferRush_1987_HeartOverMind.ape" WAVE
TRACK 01 AUDIO
TITLE "I Come Undone"
PERFORMER "Jennifer Rush"
INDEX 01 00:00:00
TRACK 02 AUDIO
TITLE "Down to You"
PERFORMER "Jennifer Rush"
INDEX 00 04:05:41
INDEX 01 04:06:10
TRACK 03 AUDIO
TITLE "Heart Over Mind"
PERFORMER "Jennifer Rush"
INDEX 00 08:32:22
INDEX 01 08:34:55
TRACK 04 AUDIO
TITLE "Search the Sky"
PERFORMER "Jennifer Rush"
INDEX 00 12:41:66
INDEX 01 12:44:10
TRACK 05 AUDIO
TITLE "Stronghold"
PERFORMER "Jennifer Rush"
INDEX 00 17:19:53
INDEX 01 17:20:10
TRACK 06 AUDIO
TITLE "Flames of Paradise (Duet with Elton John)"
PERFORMER "Jennifer Rush"
INDEX 00 21:39:36
INDEX 01 21:41:47
TRACK 07 AUDIO
TITLE "Love of a Stranger"
PERFORMER "Jennifer Rush"
INDEX 00 26:17:45
INDEX 01 26:20:50
TRACK 08 AUDIO
TITLE "Heart Wars"
PERFORMER "Jennifer Rush"
INDEX 00 30:21:55
INDEX 01 30:22:50
TRACK 09 AUDIO
TITLE "Sidekick"
PERFORMER "Jennifer Rush"
INDEX 00 33:35:55
INDEX 01 33:38:67
TRACK 10 AUDIO
TITLE "Call My Name"
PERFORMER "Jennifer Rush"
INDEX 00 37:45:50
INDEX 01 37:47:67




Страна: printed in Canada
Жанр: Pop Music
Год выпуска: 1988
Формат: APE (image .cue)
Битрейт аудио: lossless
Продолжительность: 45:26
Трэклист:
1.Love Get Ready
2.You're My One And Only
3.Falling In Love
4.When I Look In Your Eyes
5.Remin My Heart
6.Keep All The Fires Burning Bright
7.Same Heart
8.My Heart Is Still Young
9.You Don't Know What You've Got (Untill It's Gone)
10.Rain Coming Down On Me
11.Now That It's Over
Информация об исполнителе:
_____Четвертый альбом Дженнифер Раш "Passion" был издан в сентябре 1988 года с более чем 250 000 предварительными заказами как раз накануне появления в продаже. В очередной раз Дженнифер Раш заняла господствующее положение в европейских списках альбомов, возглавляющих список (на сей раз) предрождественских пластинок, выпущенных в свет. Над этим альбомом она снова работала с Гарольдом Фалтемейером, а также с Майклом Омартианом и Риком Вейком, который известен лучше всего по своей работе с Тэйлор Дайен, Селин Дион и начинающей Анастасией. Он выпустил “You’re My One And Only” - первый сингл из альбома и первую балладу со времен “Iа You’re Ever Gonna Lose My Love”. Эта песня стала огромным хитом в списках синглов и прямо во время рождественских праздников Дженнифер выпустила в свет другую балладу ballad single choosing Faltermeyer’s “KEEP ALL THE FIRES BURNING BRIGHT” which extended version included a whole extra phrase what made it very special to her fans. In spring 1989 when “PASSION” was already awarded Platinum and still stood high in Europe’s album charts JENNIFER RUSH released the uptempo album opener “LOVE GET READY” as the third single which turned out to be the airplay smash of its time. “PASSION” also featured the outstanding duet “SAME HEART” performed by JENNIFER and US-superstar MICHAEL BOLTON.Отчёт EAC об извлечении, выполненном 6. августа 2008, 20:54 для диска:
Jennifer Rush / Passion
Дисковод: PLEXTOR CD-R PX-W5224A Adapter: 1 ID: 1
Режим чтения: Достоверный (C2: нет, Точный поток: да, Отключение кэша: да)
Коррекция смещения при чтении: 30
Способность читать области Lead-in и Lead-out : Да
Выходной формат: Monkey's Audio Lossless Encoder v3.99 DLL
High Lossless Compression
Другие параметры:
Заполнение пропущенных сэмплов тишиной : Да
Удаление блоков с тишиной в начале и конце : Нет
Установленный внешний ASPI-интерфейс
Характеристики диапазона извлечения и сообщения об ошибках
Выбранный диапазон
Имя файла D:\Audio Images\Pussycat_1976_FirstOfAll\Jennifer Rush - Passion.ape
Пиковый уровень 100.0 %
Качество диапазона 100.0 %
CRC F06E8597
Копирование... OK
Ошибок не произошло
Конец отчёта

REM GENRE Pop
REM DATE 1988
REM DISCID A70AA60B
REM COMMENT "ExactAudioCopy v0.95b4"
PERFORMER "Jennifer Rush"
TITLE "Passion"
FILE "JenniferRush_1988_Passion.ape" WAVE
TRACK 01 AUDIO
TITLE "Love Get Ready"
PERFORMER "Jennifer Rush"
INDEX 01 00:00:00
TRACK 02 AUDIO
TITLE "You're My One And Only"
PERFORMER "Jennifer Rush"
INDEX 00 04:02:73
INDEX 01 04:04:00
TRACK 03 AUDIO
TITLE "Falling In Love"
PERFORMER "Jennifer Rush"
INDEX 01 07:45:02
TRACK 04 AUDIO
TITLE "When I Look In Your Eyes"
PERFORMER "Jennifer Rush"
INDEX 00 11:44:20
INDEX 01 11:44:55
TRACK 05 AUDIO
TITLE "Remind My Heart"
PERFORMER "Jennifer Rush"
INDEX 00 15:04:42
INDEX 01 15:04:67
TRACK 06 AUDIO
TITLE "Keep All The Fires Burning Bright"
PERFORMER "Jennifer Rush"
INDEX 00 19:34:48
INDEX 01 19:35:62
TRACK 07 AUDIO
TITLE "Same Heart (Duet with Michael Bolton)"
PERFORMER "Jennifer Rush"
INDEX 00 24:28:48
INDEX 01 24:29:17
TRACK 08 AUDIO
TITLE "My Heart Is Still Young"
PERFORMER "Jennifer Rush"
INDEX 00 28:46:17
INDEX 01 28:47:12
TRACK 09 AUDIO
TITLE "You Don't Know What You've Got (Until It's Gone)"
PERFORMER "Jennifer Rush"
INDEX 00 32:46:31
INDEX 01 32:47:07
TRACK 10 AUDIO
TITLE "Rain Coming Down On Me"
PERFORMER "Jennifer Rush"
INDEX 00 37:16:67
INDEX 01 37:17:50
TRACK 11 AUDIO
TITLE "Now That It's Over"
PERFORMER "Jennifer Rush"
INDEX 00 41:22:73
INDEX 01 41:23:57




Страна: made in Austria
Жанр: Pop Music
Год выпуска: 1989
Формат: APE (image .cue)
Битрейт аудио: lossless
Продолжительность: 45:15
Трэклист:
1. Wings Of Desire
2. Pleasure
3. Midnight Mirage
4. Angel
5. Higher Ground
6. Love Is A Wild Thing
7. For All That
8. Love Is A Language (Of The Heart)
9. Cry
10. Walk Away
11. Where Can You Run (not on LP)
Информация об исполнителе:
_____1989 turned out to be a very productive year for JENNIFER, because shortly after releasing “LOVE GET READY” she surprised with an exceptional project. World famous opera star tenor Placido Domingo recorded a duet with JENNIFER RUSH and included the song to his musical project “Goya… A Life In Song”. “TILL I LOVED YOU” became a milestone in JENNIFER RUSH’s career and the single which was again praised by fans and critics became a smash hit in England, for example, where it reached #17 in the singles chart. Shortly after “TILL I LOVED YOU” JENNIFER was part of another special music project. Along with numerous stars like Chaka Khan and Joe Cocker she was part of Artists United For Nature’s single “YES WE CAN” which proceeds were donated to save the rain forest.
_____And finally in October 1989 JENNIFER RUSH’s released her brand new single “HIGHER GROUND” taken from her 5th studio album “WINGS OF DESIRE” which was released in November 1989. The single became a huge hit all over Europe straight away and the new album which was produced by Christopher Neil, Michael J. Powell and Phil Ramone smashed up the album charts easily reaching Top Ten positions again. Gold and Platinum was only a questions of time and proved that people loved the more soul-oriented style on this record. The title track “WINGS OF DESIRE” was released in early 1990 along with JENNIFER’s triumphal tour through Europes biggest TV shows. “WINGS OF DESIRE” turned out to be the last studio album of JENNIFER RUSH signed to CBS / Columbia Germany. After five enormously successful albums and numerous hit singles JENNIFER didn’t renew her contract with her record company. She had become the best selling female solo artist in the history of CBS Germany.
_____The only new material released by JENNIFER RUSH in 1990 was the theme song “WE ARE THE STRONG” taken from Willy Bogner’s blockbuster movie “Fire, Ice
Вложения:
Тип файла: torrent 20.7 Кб , (1)

Последний раз редактировалось BasterBot, 11.11.2008 в 12:38.
Ответить с цитированием
Ответ


Опции темы
Опции просмотра

Ваши права в разделе
Вы не можете создавать темы
Вы не можете отвечать на сообщения
Вы не можете прикреплять файлы
Вы не можете редактировать сообщения

BB коды Вкл.
Смайлы Вкл.
[IMG] код Вкл.
HTML код Выкл.

Профессиональная разработка сайтов - Webstudio-pro.net