Скачать торрент музыку, аудиокниги, фильмы, сериалы бесплатно

Ответ
 
Опции темы Опции просмотра
  #1  
Старый 24.01.2009, 12:23
BasterBot BasterBot вне форума
Senior Member
 
Регистрация: 23.04.2008
Сообщений: 21,941
(Disco/Pop) Neoton Familia - A Familia (1981) / Szerencsejatek (1982) - 2002, APE (image .cue), lossless
Neoton Familia - A Familia (1981) / Szerencsejatek (1982)
Страна: Hungary
Жанр: Disco/Pop
Год выпуска: 2002
Формат: APE (image .cue)
Битрейт аудио: lossless
Трэклист:
A Familia (1981)
01. Ketszazhusz Felett
02. Samson Es Delila
03. Jojjon A Nyar!
04. A Legkisebb Fiu
05. Vadvirag
06. Lobo, Az Idegen
07. Egyszer Megertelek
08. Caligula
09. Hazudos
Szerencsejatek (1982)
01. Monte Carlo
02. Eszterlanc
03. Tini-Dal
04. Napfogyatkozas
05. Uveghaz
06. Kell, Hogy Varj!
07. Nem Szallunk Ki A Hajobol
08. Rongyszonyeg
09. Jojj El! (Who Let The Heartache In)
10. Szarszo
11. Szuletesnap
12. Szerencsejatek
Доп. информация: К сожалению, в альбоме "A Familia" не хватает одного трека - №10 "Regi Zongoram", который не поместился на диск...
Лог:Exact Audio Copy V0.99 prebeta 3 from 28. July 2007
Отчёт EAC об извлечении, выполненном 26. ноября 2007, 7:43
Neoton Familia / A Familia / Szerencsejatek
Дисковод: MITSUMI CR-48XETE Adapter: 1 ID: 1
Режим чтения : Достоверность
Использование точного потока : Да
Отключение кэша аудио : Да
Использование указателей C2 : Нет
Комбинированное смещение чтения/записи : 0
Способность читать области Lead-in и Lead-out : Нет
Заполнение пропущенных сэмплов тишиной : Да
Удаление блоков с тишиной в начале и конце : Нет
При вычислениях CRC использовались нулевые сэмплы : Нет
Интерфейс : Встроенный Win32-интерфейс для Win NT/2000
Выходной формат : Внутренние WAV-операции
Формат сэмплов : 44.100 Гц; 16 бит; стерео
TOC извлечённого CD
Трек | Старт | Длительность | Начальный сектор | Конечный сектор
---------------------------------------------------------------------
1 | 0:00.00 | 4:23.47 | 0 | 19771
2 | 4:23.47 | 4:39.18 | 19772 | 40714
3 | 9:02.65 | 3:03.04 | 40715 | 54443
4 | 12:05.69 | 3:48.66 | 54444 | 71609
5 | 15:54.60 | 3:43.03 | 71610 | 88337
6 | 19:37.63 | 4:19.62 | 88338 | 107824
7 | 23:57.50 | 3:23.42 | 107825 | 123091
8 | 27:21.17 | 4:21.35 | 123092 | 142701
9 | 31:42.52 | 3:30.42 | 142702 | 158493
10 | 35:13.19 | 3:47.64 | 158494 | 175582
11 | 39:01.08 | 3:49.23 | 175583 | 192780
12 | 42:50.31 | 3:27.31 | 192781 | 208336
13 | 46:17.62 | 3:44.44 | 208337 | 225180
14 | 50:02.31 | 4:13.21 | 225181 | 244176
15 | 54:15.52 | 3:36.52 | 244177 | 260428
16 | 57:52.29 | 3:52.50 | 260429 | 277878
17 | 61:45.04 | 3:47.49 | 277879 | 294952
18 | 65:32.53 | 3:23.10 | 294953 | 310187
19 | 68:55.63 | 2:59.26 | 310188 | 323638
20 | 71:55.14 | 3:31.61 | 323639 | 339524
21 | 75:27.00 | 4:26.29 | 339525 | 359503
Характеристики диапазона извлечения и сообщения об ошибках
Выбранный диапазон
Имя файла D:\APE\Neoton_Familia_-_A Familia Szerencsejatek_[torrents.ru]\Neoton Familia - A Familia Szerencsejatek.wav
Пиковый уровень 100.0 %
Качество диапазона 100.0 %
CRC копии CECE1B6E
Копирование... OK
Ошибок не произошло
Конец отчёта
Вложения:
Тип файла: torrent 11.2 Кб , (0)

Последний раз редактировалось BasterBot, 24.01.2009 в 12:26.
Ответить с цитированием
Ответ


Опции темы
Опции просмотра

Ваши права в разделе
Вы не можете создавать темы
Вы не можете отвечать на сообщения
Вы не можете прикреплять файлы
Вы не можете редактировать сообщения

BB коды Вкл.
Смайлы Вкл.
[IMG] код Вкл.
HTML код Выкл.

Профессиональная разработка сайтов - Webstudio-pro.net